Carregando...
Sem categoria

Como separar um arquivo de áudio em vários outros?

Quando você baixa um Álbum/CD completo pelo Youtube, a música vem toda em um só arquivo. Como fazemos para separar este grande arquivo em pequenos arquivos, um para cada música?

Qual o formato de arquivo você quer cortar?

MP3, FLAC?

Se você está cortando um MP3, ou um OGG, a escolha certa é o Medieval CUE Splitter. Para cortar seu áudio em vários você vai precisar também um arquivo CUE.

O que é o arquivo .CUE?

É um arquivo texto que indica o nome da faixa e o horário em que ela começa ou acaba. Eis um exemplo de arquivo CUE:


PERFORMER "Sepultura"
TITLE "Sepultura - Against (1998)"
FILE "Sepultura - Sepultura - Against (1998).mp3" MP3
TRACK 01 AUDIO
TITLE "Against"
INDEX 01 00:00:00
TRACK 02 AUDIO
TITLE "Choke"
NDEX 01 01:54:40
TRACK 03 AUDIO
TITLE "Rumors"
INDEX 01 05:31:10
TRACK 04 AUDIO
TITLE "Old Earth"
INDEX 01 08:35:30
TRACK 05 AUDIO
TITLE "Floaters In Mud"
INDEX 01 13:04:27
TRACK 06 AUDIO
TITLE "Boycott"
INDEX 01 18:02:72
TRACK 07 AUDIO
TITLE "Tribus"
INDEX 01 21:13:67
TRACK 08 AUDIO
TITLE "Common Bonds"
INDEX 01 22:52:15
TRACK 09 AUDIO
TITLE "F.O.E."
INDEX 01 25:51:12
TRACK 10 AUDIO
TITLE "Reza"
INDEX 01 27:59:12
TRACK 11 AUDIO
TITLE "Unconscious"
INDEX 01 30:16:02
TRACK 12 AUDIO
TITLE "Kamaitachi"
INDEX 01 33:53:42
TRACK 13 AUDIO
TITLE "Drowned Out"
INDEX 01 36:56:62
TRACK 14 AUDIO
TITLE "Hatred Aside"
INDEX 01 38:25:57
TRACK 15 AUDIO
TITLE "T3Rcermillenium"
INDEX 01 42:58:00

Você pode gerar um arquivo CUE manualmente no website cuegenerator.net.

Você pode procurar arquivos CUE prontos na internet no website regeert.nl/cuesheet/

Como separar os arquivos?

Basta usar o Medieval CUE Splitter, informar o arquivo de áudio e informar o arquivo CUE.

M4A?

M4A é um formato da Apple, e vendido como substituto do MP3. Como tudo que vem da Apple, é bem mais difícil de achar conversores.

O ponto aqui é: se você está usando um M4A lossy, ou seja, um arquivo de áudio AAC, é uma péssima ideia transformar ele pra MP3 ou OGG, pois estará sujando ainda mais o som. O que nos resta é usar um cortador de áudio que não faça transcoding.

O único que achei foi um chamado Boilsoft Video Splitter. Ele consegue cortar vídeos e áudios em vários formatos sem precisar fazer transcoding, isso é ótimo! O problema é que você precisa cortar faixa por faixa, uma a uma, é bem trabalhoso. Outro problema (menor) é que ele encapsula o arquivo em um MP4. Mudar a extensão pra M4A funcionou para mim, mas talvez não funcione em todos os media players.

OGG?

Não descobri ainda :/

Referência

https://www.simplehelp.net/2009/03/02/how-to-split-a-single-flac-file-into-multiple-tracks/

Deixe uma resposta

O seu endereço de e-mail não será publicado. Campos obrigatórios são marcados com *